Loading...
Error

Человек с бульвара Капуцинов (Алла Сурикова) [1987, мюзикл, мелодрама, комедия, вестерн, BDRip-AVC] Sub Rus

Ответить на тему
 
Автор
Сообщение

Mithas204

post 20-Июн-2015 09:06

Quote



Человек с бульвара Капуцинов


pic
Жанр: мюзикл, мелодрама, комедия, вестерн
Год выпуска: 1987
Продолжительность: 01:37:47
Cубтитры: русские


Режиссёр: Алла Сурикова


В ролях: Андрей Миронов, Александра Яковлева, Михаил Боярский, Олег Табаков, Николай Караченцов, Игорь Кваша, Лев Дуров, Галина Польских, Наталья Крачковская, Наталья Фатеева...


Описание: В одном из ковбойских городков Дикого Запада с его традиционной стрельбой, сквернословием и мордобоем появляется тихий миссионер кино мистер Фёст. Неведомое прежде ковбоям «синема» до неузнаваемости меняет уклад их жизни, нравы и привычки.
Правда, позднее благородный мистер Фёст будет изгнан недоброжелателями. Но обитатели городка уже никогда не смогут забыть, что на свете есть великое искусство — КИНО…


pic


Качество видео: BDRip-AVC
Формат видео: MKV
Видео: 1084x648 (1.673), 23.976 fps, AVC, ~2737 Kbps, 0.163 bits/pixel
Аудио: 48.0 KHz, AC3, 6 ch, 448 Kbps


MI
Video
ID : 1
Format : AVC
Format/Info : Advanced Video Codec
Format profile : High@L4.0
Format settings, CABAC : Yes
Format settings, ReFrames : 10 frames
Codec ID : V_MPEG4/ISO/AVC
Duration : 1h 37mn
Bit rate : 2 737 Kbps
Width : 1 084 pixels
Height : 648 pixels
Display aspect ratio : 1.673
Frame rate mode : Constant
Frame rate : 23.976 fps
Color space : YUV
Chroma subsampling : 4:2:0
Bit depth : 8 bits
Scan type : Progressive
Bits/(Pixel*Frame) : 0.163
Stream size : 1.83 GiB (84%)
Writing library : x264 core 142 r2479 dd79a61
Encoding settings : cabac=1 / ref=10 / deblock=1:-1:-1 / analyse=0x3:0x133 / me=umh / subme=10 / psy=1 / psy_rd=1.00:0.10 / mixed_ref=1 / me_range=32 / chroma_me=1 / trellis=2 / 8x8dct=1 / cqm=0 / deadzone=21,11 / fast_pskip=0 / chroma_qp_offset=-3 / threads=6 / lookahead_threads=1 / sliced_threads=0 / nr=0 / decimate=1 / interlaced=0 / bluray_compat=0 / constrained_intra=0 / bframes=10 / b_pyramid=2 / b_adapt=2 / b_bias=0 / direct=3 / weightb=1 / open_gop=0 / weightp=2 / keyint=250 / keyint_min=23 / scenecut=40 / intra_refresh=0 / rc_lookahead=50 / rc=2pass / mbtree=1 / bitrate=2737 / ratetol=1.0 / qcomp=0.60 / qpmin=0 / qpmax=69 / qpstep=4 / cplxblur=20.0 / qblur=0.5 / ip_ratio=1.40 / aq=1:1.00
Default : Yes
Forced : No
Audio
ID : 2
Format : AC-3
Format/Info : Audio Coding 3
Mode extension : CM (complete main)
Format settings, Endianness : Big
Codec ID : A_AC3
Duration : 1h 37mn
Bit rate mode : Constant
Bit rate : 448 Kbps
Channel(s) : 6 channels
Channel positions : Front: L C R, Side: L R, LFE
Sampling rate : 48.0 KHz
Bit depth : 16 bits
Compression mode : Lossy
Stream size : 313 MiB (14%)
Language : Russian
Default : Yes
Forced : No
Text
ID : 3
Format : UTF-8
Codec ID : S_TEXT/UTF8
Codec ID/Info : UTF-8 Plain Text
Language : Russian
Default : No
Forced : No
Menu
00:00:00.000 : :Chapter 01
00:07:27.905 : :Chapter 02
00:13:55.960 : :Chapter 03
00:21:33.583 : :Chapter 04
00:32:58.101 : :Chapter 05
00:40:15.162 : :Chapter 06
00:48:34.703 : :Chapter 07
00:53:06.474 : :Chapter 08
01:04:16.477 : :Chapter 09
01:12:13.704 : :Chapter 10
01:19:41.234 : :Chapter 11
01:27:29.827 : :Chapter 12
Скриншоты
pic
pic

_________________
НАРОД! Если нужно встать на раздачу из числа моих раздач пишите в ЛС.


Последний раз редактировалось: Mithas204 (2015-06-20 19:05), всего редактировалось 1 раз
Скрыт

Mithas204

post 20-Июн-2015 09:06 (спустя 22 секунды)

Quote

Ист.: http://rutracker.org/forum/viewtopic.php?t=4860954

_________________
НАРОД! Если нужно встать на раздачу из числа моих раздач пишите в ЛС.
Скрыт

russtam1979

post 20-Июн-2015 22:19 (спустя 13 часов)

Quote

"Сэр это был мой бифштекс" :D *THUMBS UP* - шедевр *HI*
Скрыт

dado25

post 21-Июн-2015 14:44 (спустя 16 часов)

Quote

классика)
Вне форума
Показать сообщения:    
Ответить на тему

Текущее время: 28-Мар 01:22

Часовой пояс: GMT + 5



Вы не можете начинать темы
Вы не можете отвечать на сообщения
Вы не можете редактировать свои сообщения
Вы не можете удалять свои сообщения
Вы не можете голосовать в опросах
Вы не можете прикреплять файлы к сообщениям
Вы не можете скачивать файлы